Désobéissance

gortom
gortom
Je T'aime'щики
подробнее
71 1 дек 2018 в 14:39

7t-UI8-Ujm-mm-n-H5-mp4-snapshot-00-10-2018-10-26-15-22-30_cr.jpg


В лучшем качестве (FLAC)






Спойлер
Samplerate: 44100 Hz
Channels: 2
Bits per sample: 24
Bitrate: 1614 kbps
Codec: FLAC


ссылка




В тени
Всё позабыв и став свободным
В ночь уйти




 
Очень спасибо сказали (2): Marie_sword, Светлая Lilu
 
 

gortom
gortom
Je T'aime'щики
подробнее
72 5 дек 2018 в 15:23

Desobeissance (Nouvelle Edition)


Box_Back_300dpi.pngBox_Front_300dpi.pngCD_300dpi.pngDigi_Inside_300dpi.pngDigi_Outside_300dpi.pngDVD_300dpi.png

БУКЛЕТ


Booklet_01.pngBooklet_02.pngBooklet_03.pngBooklet_04.pngBooklet_05.pngBooklet_06.pngBooklet_07.pngBooklet_08.pngBooklet_09.pngBooklet_10.pngBooklet_11.pngBooklet_12.png




В тени
Всё позабыв и став свободным
В ночь уйти




 
Очень спасибо сказали (6): veritas, Yurgen, lily, natalig29, Marie_sword, Светлая Lilu
 
 

gortom
gortom
Je T'aime'щики
подробнее
73 8 дек 2018 в 22:29
DVD_300dpi.png


Desobeissance - Bonus DVD


Бонусный DVD к переизданию альбома Desobeissance
Продолжительность: 00:20:20
Год выпуска: 2018
Размер: 1.41 GB
Треклист:
01. Rolling Stone
02. N'Oublie Pas
03. Sentimentale
04. Desobeissance
05. Desobeissance (making of)


Спойлер
Качество : DVD5
Формат: DVD video
Видео кодек: MPEG2
Аудио кодек: PCM
Видео: MPEG Video (PAL) 720*576 (16:9), 25fps
Аудио: AC-3, 192Kbps, 48.0 KHz, 16bits, 2 ch
Аудио2: PCM, 1536Kbps, 48.0 KHz, 16bits, 2 ch


DVDinfo

Format : MPEG-PS
File size : 1 024 MiB
Duration : 2mn 50s
Overall bit rate mode : Constant
Overall bit rate : 50.3 Mbps

Video
ID : 224 (0xE0)
Format : MPEG Video
Format version : Version 2
Format profile : Main@Main
Format settings : BVOP
Format settings, BVOP : Yes
Format settings, Matrix : Default
Format settings, GOP : Variable
Duration : 2mn 50s
Bit rate mode : Constant
Bit rate : 47.6 Mbps
Maximum bit rate : 7 800 Kbps
Width : 720 pixels
Height : 576 pixels
Display aspect ratio : 16:9
Frame rate : 25.000 fps
Standard : PAL
Color space : YUV
Chroma subsampling : 4:2:0
Bit depth : 8 bits
Scan type : Progressive
Compression mode : Lossy
Bits/(Pixel*Frame) : 4.591
Time code of first frame : 00:00:00:00
Time code source : Group of pictures header
GOP, Open/Closed : Closed
Stream size : 968 MiB (95%)
Color primaries : BT.601 PAL
Transfer characteristics : BT.470 System B/G
Matrix coefficients : BT.470 System B/G

Audio #1
ID : 189 (0xBD)-129 (0x81)
Format : AC-3
Format/Info : Audio Coding 3
Commercial name : Dolby Digital
Muxing mode : DVD-Video
Duration : 2mn 50s
Bit rate mode : Constant
Bit rate : 192 Kbps
Channel(s) : 2 channels
Channel layout : L R
Sampling rate : 48.0 KHz
Frame rate : 31.250 fps (1536 SPF)
Bit depth : 16 bits
Compression mode : Lossy
Stream size : 3.90 MiB (0%)
Service kind : Complete Main

Audio #2
ID : 189 (0xBD)-160 (0xA0)
Format : PCM
Format settings : Big / Signed
Muxing mode : DVD-Video
Duration : 2mn 50s
Bit rate mode : Constant
Bit rate : 1 536 Kbps
Channel(s) : 2 channels
Sampling rate : 48.0 KHz
Bit depth : 16 bits
Stream size : 31.2 MiB (3%)



СКАЧАТЬ ZIP АРХИВ


ТОРРЕНТ






В тени
Всё позабыв и став свободным
В ночь уйти




 
Сообщение отредактировал(а): gortom, 9 дек 2018 в 4:44
Очень спасибо сказали (4): Yurgen, Marie_sword, lily, Светлая Lilu
 
 

gortom
gortom
Je T'aime'щики
подробнее
74 21 дек 2018 в 16:32

Du8UOphWoAMf0kh.jpg


Альбом «Désobéissance» - двойной Платиновый Диск!


2018-12-21_162632.jpg

ссылка




В тени
Всё позабыв и став свободным
В ночь уйти




 
Очень спасибо сказали (2): Светлая Lilu, Marie_sword
 
 

Быстрый переход
 
Ответить в теме: Désobéissance
У вас недостаточно прав на создание сообщения, авторизуйтесь

Back to Top